Trường THPT Số 1 Mộ Đức

Diễn đàn trường THPT số 1 Mộ Đức
 
Trang ChínhCalendarGalleryTrợ giúpTìm kiếmThành viênNhómĐăng kýĐăng Nhập

Share | 
 

 Tuyển tập phim Rạp mới [2010-2011] 1 link dow duy nhất

Xem chủ đề cũ hơn Xem chủ đề mới hơn Go down 
Tác giảThông điệp
neversaynever99
Gà con
Gà con
avatar

Tổng số bài gửi : 1
Reputation : 0
01/01/1990
Join date : 04/03/2011
Age : 28
Đến từ : hà nội
MD1coin : 3

Bài gửiTiêu đề: Tuyển tập phim Rạp mới [2010-2011] 1 link dow duy nhất    Fri Mar 04, 2011 10:26 pm


+ Phụ đề tất cả các phim các bạn vô đây dow nhé, nhớ gõ tên tiếng E phim và tìm sub nào tên giống với bản phim (HD, DVD, DVDrip...): http://subscene.com
+ Cách Dowload: Vô link dow -> click "Regular download" -> click "Download on slow speed" -> đợi đếm ngược về 0 "Wait for Your turn" -> click "Link to the file download" ---> ok!



Gừng càng già càng cay - Red 2010 DvdSCR Xvid





Trailer hay:
https://www.youtube.com/watch?v=RkrRQ626oho


Trích dẫn :
letitbit.net Red.2010.BRRiP.720p.x264.mp4.html
Or:
Trích dẫn :
http://filekeen.com/6x8gfre7o5l9/Red.2010.BRRiP.720p.x264.mp4.html

Sub Viet:
mediafire.com ?s6ok9p3y5has2m4


Bom tấn nóng bỏng tay 2011 - S.W.A.T Firefight[2011]BRRip XviD



[code]Theatre Date : 1 March 2011(USA)
IMDB User Ratings: Awaiting
Genre : Action
IMDB Link : http://www.imdb.com/title/tt1621429/

VIDEO:-
Format : Audio Video Interleave
Bitrate : 965
Codec ID : XviD
Resolution : 640 X 352
Aspect Ratio : 16:9
Frame Rate : 23.976 fps
Quality Frame : 0.179

Audio:-
Codec ID : MP3
Bitrate : 128 kbps
Channel(s) : 2
Sample Rate : 48.0 KHZ

Encoder : SaM
File Size : 700 MiB
Duration : 01h28m
Source : Blu-Ray CHD

Trailer Phim :
https://www.youtube.com/watch?v=5__vU_f3M0o


Trích dẫn :
letitbit.net S.W.A.T_Firefight.2011.BRRip_XviD.avi.html
Or:
Trích dẫn :
[url]http://filekeen.com/qfhz52hndbmy/S.W.A.T_Firefight[2011]BRRip_XviD.avi.html[/url]

Sub việt:
http://subscene.com/SWAT-Firefight-SWAT/subtitles-86901.aspx


[Đầy cảm động] 127 hours sinh tử DBRip 1 link



http://cB4.upanh.com/19.0.25850433.qQl0/s.png

Trailer:
https://www.youtube.com/watch?v=OlhLOWTnVoQ


Trích dẫn :
letitbit.net l-127.hours.xvid.avi.html
OR:
Trích dẫn :
http://filekeen.com/waruaktop57m/l-127.hours.xvid.avi.html

Sub Viet:
http://subscene.com/vietnamese/127-Hours-127-Hours-3D/subtitle-412226.aspx


The Chronicles of Narnia-The Voyage of the Dawn Treader[2010]R5


Thông tin về Phim:
http://cB4.upanh.com/19.127.25964743.3aS0/bomtan.png
[code]Theatre Date : 10 December2010(USA)
IMDB User Ratings: 6.7
Genre : Family/Adventure/Fantasy
IMDB Link : http://www.imdb.com/title/tt0980970/

VIDEO:-

Format : Audio Video Interleave
Bitrate : 764
Codec ID : XviD
Resolution : 640 X 352
Aspect Ratio : 16:9
Frame Rate : 25.000 fps
Quality Frame : 0.136

Audio:-

Codec ID : MP3
Bitrate : 128 kbps
Channel(s) : 2
Sample Rate : 48.0 KHZ

Screens:-
https://redcdn.net/ihimizer/img513/8702/ss2sw.png
https://redcdn.net/ihimizer/img59/1084/ss1fw.png
https://redcdn.net/ihimizer/img341/9877/ss3u.png
https://redcdn.net/ihimizer/img64/7838/ss4k.png
https://redcdn.net/ihimizer/img607/5950/ss5f.png[/code]

Trailer:
https://www.youtube.com/watch?v=JlMJAOAWk-M


Trích dẫn :
letitbit.net The.Chronicles.of.Narnia.2010.R5.LiNE.XviD.avi.html
Or:
Trích dẫn :
[url]http://filekeen.com/6jrzczuiwfx6/The_Chronicles_of_Narnia-The_Voyage_of_the_Dawn_Treader[2010]R5.avi.html[/url]

Sub Viet:
http://subscene.com/vietnamese/The-Chronicles-of-Narnia-The-Voyage-of-the-Dawn-Treader/subtitle-413087.aspx


The Mechanic 2011 - Trừng phạt kẻ ác




Thông tin về Phim:
http://upload-free.com/images/85890277708162365184.png
http://upload-free.com/images/08492492959243849325.png

[code]Theatre Date : 28 January 2011(USA)
IMDB User Ratings: 6.8
Genre : Action/Drama/Thriller
IMDB Link : http://www.imdb.com/title/tt0472399/

VIDEO:-
Format : Audio Video Interleave
Bitrate : 971
Codec ID : XviD
Resolution : 640 X 272
Aspect Ratio : 4:2:0
Frame Rate : 25.000 fps
Quality Frame : 0.223

Audio:-
Codec ID : MP3
Bitrate : 128 kbps
Channel(s) : 2
Sample Rate : 44.1 KHZ

Cast:-
Jason Satham : Arthur Bishop
Ben Foster : Steve McKenna
Tony Goldwyn : Dean
Donald Sutherland : Harry McKenna

Plot:-
Follows an elite hit man as he teaches his trade to an
apprentice who has a connection to one of his previous
victims.
Screens:-
https://redcdn.net/ihimizer/img341/6476/ss1b.png
https://redcdn.net/ihimizer/img218/1433/ss2j.png
https://redcdn.net/ihimizer/img39/7521/ss3qp.png
https://redcdn.net/ihimizer/img248/1365/ss4m.png
https://redcdn.net/ihimizer/img201/1819/ss5s.png[/code]

Trailer:
https://www.youtube.com/watch?v=CMklQNn0OH0


Trích dẫn :
letitbit.net TrungPhatKeAc.The.Mechanic.2011.R5.avi.html

Sub Viet:
http://subscene.com/vietnamese/The-Mechanic/subtitle-414506.aspx


Từ Hy Viên 'mát mẻ' trong Reign of Assassins 2010



http://upload-free.com/images/78859459829295682747.jpg
http://upload-free.com/images/05182172115373059537.jpg







Length.......: 115 Mins
ViDEO & AUDiO
Source.......: DVD
Video Codec..: XviD Audio Formate: AC3
Format.......: AVI Bitrate .....: 192Kbps
Resolution...: 720x304 Channels.....: 2ch
Video Bitrate: 1607Kbps Language.....: Mandarin
Frame Rate...: 23.976 fps Subtitles....: Chs | Eng (subbed)

Trailer:
[code]https://www.youtube.com/watch?v=HkzTyMkmlfI&feature=related[/code]

Download Reign of Assassins 2010 1.45G DVDRip + link nhanh full movie

Link dow nhanh 4 part:
Trích dẫn :
letitbit.net Reign.of.Assassins.2010.DVDRip.XviD.AC3.avi.part1.rar.html
letitbit.net Reign.of.Assassins.2010.DVDRip.XviD.AC3.avi.part2.rar.html
letitbit.net Reign.of.Assassins.2010.DVDRip.XviD.AC3.avi.part3.rar.html
letitbit.net Reign.of.Assassins.2010.DVDRip.XviD.AC3.avi.part4.rar.html
letitbit.net Reign.of.Assassins.2010.DVDRip.XviD.AC3.avi.part5.rar.html

Or 1 link full movie:

Trích dẫn :
letitbit.net KiemVuGiangHo.Reign.of.Assassins.2010.DVDRip.avi.html

Sub Viet: http://subscene.com/Reign-Of-Assassins-Jian-Yu/subtitles-84970.aspx


Nụ hôn thần chết "Kiss Of The Death" (Phần 1) DVDrip 1 link full



Thông tin về phim:
http://cB6.upanh.com/19.0.25540925.sQx0/thn.png


Trích dẫn :
letitbit.net NuHonThanChet.2008.DVDRipXvid.html

+ Dowload: Vao link dow -> click "Regular download" -> click "Download on slow speed" -> doi dem nguoc ve 0 "Wait for Your turn" -> click "Link to the file download" ---> ok!

Or:
Trích dẫn :
vip-file.com 42658301360790296359881-71295.7babc485876e5b23ca914f031787


Giải cứu thần chết (Phần 2) DVDrip 1 link full



Thông tin về phim:
http://cB6.upanh.com/19.0.25542315.wrr0/bn.png


[code]http://letitbit.net/download/54219.5f91ced0022ffa3e81582958602f/GiaiCuuThanChet.2009.DVDRipXvid.html[/code]

Phim Việt Nam, Không Cân Sức... 18+



Nội dung Phim:
http://cB9.upanh.com/19.0.25468518.O0A0/cansuc.png

Trailer phim cuc hay:
https://www.youtube.com/watch?v=aRbS40-D9NY&feature=player_embedded


Trích dẫn :
letitbit.net KhongCanSuc.2010.DVDrip.mkv.html


Công Chúa Teen Và Ngũ Hổ Tướng 2010 dvd bản đẹp



Trailer:
https://www.youtube.com/watch?v=LZ2qACjmK5U


Trích dẫn :
letitbit.net DVD1_CongchuaTeen.mkv.html

letitbit.net DVD2_CongchuaTeen.mkv.html

+ Dowload: Vao link dow -> click "Regular download" -> click "Download on slow speed" -> doi dem nguoc ve 0 "Wait for Your turn" -> click "Link to the file download" ---> ok!

[Sub Việt] Triệu Thị Cô Nhi 2010 - Câu chuyện đẫm nước mắt



Nội dung Phim:
http://kenh14.vn/c65/20101109123521871/trieu-thi-co-nhi-cau-chuyen-dam-nuoc-mat-cua-trung-quoc.chn


Trích dẫn :
letitbit.net Trieu.Thi.Co.Nhi.dvdrip.mkv.html

Sub Việt:
mediafire.com ?g838zpz98g2uze8


Cô nàng lẳng lơ - Easy A BRrip 2010



Movie Info

http://www.imdb.com/title/tt1282140/

[TITLE]…………………….[ Easy A
[DIRECTOR]………………….[ Will Gluck
[RELEASE DATE]………………[ 17 September 2010 (USA)
[FORMAT]:…………………..[ Matroska (MKV)
[GENRE]:……………………[ Comedy | Romance
[NO OF CDs]…………………[ 1
[FILE SIZE]:………………..[ 550MB
[RESOLUTION]:……………….[ 1280x688
[LANGUAGE ]:………………..[ English
[SUBTITLES]:………………..[ English [Softcoded]
[ORIGINAL RUNTIME]:………….[ 01:32:24
[RELEASE RUNTIME]:…………..[ 01:32:24
[ENCODER]:………………….[ ShAaNiG
[SOURCE]:…………………..[ Easy A 2010 720p BluRay x264-METiS
[iMDB RATING]:………………[ 7.7/10

Screens
https://redcdn.net/ihimizer/i/132134478991554.jpg/
https://redcdn.net/ihimizer/i/672814308991626.jpg/
https://redcdn.net/ihimizer/i/421162818991595.jpg/

Trailer:
https://www.youtube.com/watch?v=rget7vbKILU


Trích dẫn :
letitbit.net Easy.A.2010.BRrip.720p.wmv.html

Sub Viet:
http://subscene.com/vietnamese/Easy-A/subtitle-395567.aspx


Phim về ma cà rồng Let Me In 2010 DVDRip 1 link



Thông tin phim
http://cB0.upanh.com/19.0.25894119.Npq0/ko.png
Trailer:
https://www.youtube.com/watch?v=rdK0FL_o-f0&feature=related


Trích dẫn :
letitbit.net Let.Me.In.2010.DvDrip.aXXo.avi.html

Sub Viet:
mediafire.com ?50hc28l861slmgz


I Spit On Your Grave 2010 [Tiên nữ - hãm hiếp - trả thù]






[code]Language: English
108 min | XviD @ 1322 Kbps | 640x272 @ 23.976 fps
AC3 - 448 Kbps - 6 channels @ 48.0 KHz | 1.38 GB
Genre: Crime | Thriller
Director: Steven R. Monroe
Cast: Daniel Franzese, Sarah Butler, Chad Lindbergt

ScreenCaps:
https://redcdn.net/ihimizer/img824/4351/twizspitonyourgraveunrt.jpg
https://redcdn.net/ihimizer/img836/4351/twizspitonyourgraveunrt.jpg[/code]

Trailer:
https://www.youtube.com/watch?v=2zU3U-9B3fE


Trích dẫn :
letitbit.net I.Spit.On.Your.Grave.UNRATED.2010.DVDRip.18+.cd1.avi.html
letitbit.net I.Spit.On.Your.Grave.UNRATED.2010.DVDRip.18+.cd2.avi.html

Sub Viet 2 CD:
http://subscene.com/vietnamese/I-Spit-on-Your-Grave-Unrated/subtitle-405427.aspx


Dòng sông máu - Red River 2011 DVDRip Xvid







[code]File size : 1.40 GiB
Duration : 1h 17mn
Overall bit rate : 2 590 Kbps

Video
Format : MPEG-4 Visual
Duration : 1h 17mn
Bit rate : 2 322 Kbps
Width : 640 pixels
Height : 270 pixels
Display aspect ratio : 2.35:1
Frame rate : 29.970 fps
Chroma subsampling : 4:2:0
Bit depth : 8 bits
Stream size : 1.26 GiB (90%)

Audio
ID : 1
Format : AC-3
Codec ID : 2000
Duration : 1h 17mn
Bit rate : 256 Kbps
Channel(s) : 2 channels
Channel positions : Front: L R
Sampling rate : 48.0 KHz
Bit depth : 16 bits
Language : English
SCREENS
http://leetleech.org/images/27408686386260315251.png
http://leetleech.org/images/54887994787045049430.png
http://leetleech.org/images/36403687665181931692.png
http://leetleech.org/images/34060705271083168487.png
http://leetleech.org/images/68622992425555833737.png[/code]

Trailer:
https://www.youtube.com/watch?v=FsAvYk2Nbao


Trích dẫn :
letitbit.net Red.River.2011.DVDRip.Xvid.avi.part1.rar.html
letitbit.net Red.River.2011.DVDRip.Xvid.avi.part2.rar.html
letitbit.net Red.River.2011.DVDRip.Xvid.avi.part3.rar.html

OR LINK NHANH:
Trích dẫn :
DongSongMau.Red.River.2011.DVDRip.Xvid.avi.part1.rar - 510.0 MB
DongSongMau.Red.River.2011.DVDRip.Xvid.avi.part2.rar - 510.0 MB
DongSongMau.Red.River.2011.DVDRip.Xvid.avi.part3.rar - 421.0 MB

Bên kia thế giới 2010 - Hereafter 2010 DVDRip XviD



Thông tin phim:
http://cB8.upanh.com/19.361.26205127.nvW0/kii.png

Trialer:
https://www.youtube.com/watch?v=0XvJwTYnKww

[code] Hereafter.DVDRip.XviD-DEFACED

release date ...: 02/25/2011
theatre date ...: 10/17/2010
dvd date .......: 03/15/2011
source .........: Retail R1 DVD
runtime ........: 129 min
genre ..........: Drama | Fantasy

video ..........: 1124 Kbps
codec ..........: XviD
resolution .....: 640x272
frame rate .....: 23.976 fps
audio ..........: 5.1 AC3 448kbps
subs ...........: N/A
discs ..........: 2CD
http://www.imdb.com/title/tt1212419/ [/code]


Movie 2 CD:
Trích dẫn :
letitbit.net Hereafter.2010.DVDRip.XviD.cd1.avi.html
letitbit.net Hereafter.2010.DVDRip.XviD.cd2.avi.html

+ Dowload: Vao link dow -> click "Regular download" -> click "Download on slow speed" -> doi dem nguoc ve 0 "Wait for Your turn" -> click "Link to the file download" ---> ok!

Jackass 3D 2010 Đốt cháy phòng vé Bắc Mỹ




[code]Jackass 3D (2010) UNRATED DVDRip XviD - DEFACED
UNRATED DVDRip XviD - DEFACED | AVI | EN | 104 mins | 608x336
Mp3 128 kbs | 693Mb
Genres: Genre : Action / Comedy
IMDB

Plot : Johnny Knoxville and company return for the third installment of their TV show spin-off, where dangerous stunts and
explicit public displays rule.

ScreenCaps:
http://leetleech.org/images/43828119945840895795.jpg[/code]

Trích dẫn :
letitbit.net Jackass.3D.2010.UNRATED.DVDRip.XviD.avi.html

Sub E:
http://subscene.com/english/JACKASS-3D/subtitle-414989.aspx


Chiến binh bí ẩn - The Green Hornet[2011]R5 Line XviD




[code]Theatre Date : 14 January 2011(USA)
IMDB User Ratings: 6.5
Genre : Action/Comedy/Crime
IMDB Link : http://www.imdb.com/title/tt0990407/

VIDEO:-
Format : Audio Video Interleave
Bitrate : 738
Codec ID : XviD
Resolution : 640 X 256
Aspect Ratio : 2.500
Frame Rate : 25.000 fps
Quality Frame : 0.180

Audio:-
Codec ID : MP3
Bitrate : 112 kbps
Channel(s) : 2
Sample Rate : 44.1 KHZ
File Size : 700 MiB
Duration : 01h54m
Cast:-
Seth Rogen : Britt Reid/The Green Hornet
Jay Chou : Kato
Cameron Diaz : Lenore Case
Tom Wilkinson : James Reid
Plot:-
Following the death of his father,Britt Reid,heir to his
father's large company,teams up with his late dad's ass-
istant Kato to become a masked crime fighting team.

Screens:-
https://redcdn.net/ihimizer/img198/2775/ss1ch.png
https://redcdn.net/ihimizer/img826/1177/ss2og.png
https://redcdn.net/ihimizer/img718/2170/ss3al.png
https://redcdn.net/ihimizer/img199/9103/ss4w.png
https://redcdn.net/ihimizer/img638/9918/ss5c.png[/code]

Trailer:
https://www.youtube.com/watch?v=9btZIK3Obpg


Trích dẫn :
letitbit.net The.Green.Hornet.2011.R5.Line.XviD.avi.html

Sub Viet:
http://subscene.com/vietnamese/The-Green-Hornet/subtitle-415772.aspx


Phim Valentine cực hay các bồ nè, Blue Valentine 2010



Thông tin Phim:
http://upload-free.com/images/37312454018022703797.png
Trích dẫn :

Theatre Date : 29 December 2010(USA)
IMDB User Ratings: 8.1
Genre : Drama/Romance
IMDB Link : http://www.imdb.com/title/tt1120985/

VIDEO:-
Format : Audio Video Interleave
Bitrate : 766
Codec ID : XviD
Resolution : 640 X 368
Aspect Ratio : 16:9
Frame Rate : 23.976 fps
Quality Frame : 0.136

Audio:-
Codec ID : MP3
Bitrate : 96 kbps
Channel(s) : 2
Sample Rate : 48.0 KHZ

Cast:-
Ryan Gosling : Dean
Michelle Williams : Cindy
Faith Wladyka : Frankie
John Doman : Jerry

Screens:-
https://redcdn.net/ihimizer/img831/3644/ss1gk.png
https://redcdn.net/ihimizer/img402/768/ss2vp.png


Trích dẫn :
letitbit.net Blue.Valentine.2010.DVDScr.XviD.avi.html

Sub:
http://subscene.com/Blue-Valentine/subtitles-86400.aspx


Ngày diệt vong - Doomsday 2008 thuyết minh Việt chỉ 399mb



Thông tin Phim:
http://cB1.upanh.com/19.0.25414700.8rf0/diet.png


Trích dẫn :
letitbit.net NgayDietVong.Doomsday.DVDRip.x264.Thuyet.Minh.TV.mkv.html

Bom tấn Thần Tốc - Faster 2010 + Sub Việt



Thông tin Phim:
http://cB5.upanh.com/19.0.25355474.78S0/thantoc.png


Trích dẫn :
letitbit.net ThanToc.Faster.2010.DVDrip.html

Sub Viet:
http://subscene.com/Faster/subtitles-85779.aspx

Bẫy rồng 2009 Ngô Thanh Vân - Johny Trí Nguyễn DVD 1 link



Thông tin Phim:
http://cB4.upanh.com/19.0.24500393.F8s0/bay.png

Trích dẫn :
letitbit.net Bay_Rong_2009_DVD_20x264.mkv.html



[Hài tết 2011] Gala cười 2011






Trích dẫn :
letitbit.net Gala.Cuoi.2011.SDTV.x264.mkv.html


Hài tết 2010 bản đẹp cười rụng rốn luôn...




Trích dẫn :
letitbit.net VTS_01_1.vob.html
letitbit.net VTS_01_2.vob.html
letitbit.net VTS_01_3.vob.html
letitbit.net VTS_01_4.vob.html


Group ***[2010]DvDrip


Trích dẫn :
PLOT
Herman has a weakness for strip clubs. Donny has a thing for condiments and Tiffany is a newly celibate martial artist. These are Andys new friends after he unsuspectingly follows his dream girl into a sexual addiction recovery group.
LANGUAGE......{ English
RUNTiME.........{ 1:32:20
AUDiO...........{ MP3 128Kb/s 48000Hz
ViDEO............{ XVID 921 Kb/s 23.976FPS
RESOLUTiON....{ 640 x 352
DiSPLAY.......{ 1.818
QUALiTY.......{ 0.171
SiZE.............{ 701 MB
SOURCE........{ NTSC DVD
RELEASE DATE..{ 24/09/2010
https://redcdn.net/ihimizer/img36/4242/groupsex2010preview.jpg


Trích dẫn :
letitbit.net Group.***.2010.DVDrip.avi.html

Vụ Cướp Thế Kỷ - Takers 2010 BDRip



Trích dẫn :
PLOT:
A group of bank robbers find their multi-million dollar plan interrupted
by a hard-boiled detective.
MOViE iNFO:
IMDB___________[ http://www.imdb.com/title/tt1135084/
IMDB RATiNG_____[ 5.4/10
GENRE__________[ Action | Crime | Thriller
MPAA RATiNG____[ PG-13
DiRECTOR_______[ John Luessenhop
RELEASE DATE___[ 27 August 2010 (USA)
AWARDS_________[ 1 win
ViDEO iNFO:
RUNTiME________[ 1:47:06
CODEC__________[ XviD
BiT RATE_________[ 778 Kbps
FPS____________[ 23.976 FPS
RESOLUTiON_____[ 640 x 272
DiSPLAY_________[ 2.35
Q*FRAME________[ 0.186
AUDiO iNFO:
CODEC__________[ MP3
BiT RATE_________[ 128 Kbps
SAMPLiNG RATE__[ 48000Hz
CHANNELS______[ 2
SUBTiTLES________[ English
TOTAL SiZE______[ 701 MB
Screens:
https://redcdn.net/ihimizer/img530/3633/shot0001d.png
https://redcdn.net/ihimizer/img692/9569/shot0004a.png
https://redcdn.net/ihimizer/img34/7407/shot0002k.png
https://redcdn.net/ihimizer/img51/4672/shot0003pv.png
https://redcdn.net/ihimizer/img808/6558/takers2010dvdriptorrent.png


Trailer:
https://www.youtube.com/watch?v=SicGk3-bP58


Trích dẫn :
letitbit.net Takers.2010.DvDrip.avi.html
Sub Việt:
http://subscene.com/vietnamese/Takers/subtitle-396299.aspx


Chôn sống - Buried 2010 480p BDRip XviD AC3


[ RELEASE INFORMATION ]
VIDEO.......: 1720 Kbps ENCODER.....: oZi
AUDIO.......: AC3 5.1 [448 Kbps] SIZE........: 1.45 GB
FRAMERATE...: 23.976 NTSC FILES.......: 1 x AVi
SOURCE......: BDiSC RESOLUTION..: 720x304
LANGUAGE....: English SUBTITLES...: None
[ MOVIE INFORMATION ]
Genre.......: Mystery | Thriller iMDB RATING.: 7.6/10
Runtime.....: 95 mins RT RATING...: 8.6/10
Screenshots:
http://www.leetleech.org/images/53415198823277303314.png
http://www.leetleech.org/images/40825856117625183327.png

Trích dẫn :
letitbit.net Buried.2010.480p.BDRip.XviD.AC3.avi.html


Game of Death 2010 DVDSCr XviD



Trích dẫn :
Game of Death (2010) DVDSCR XviD-NYDIC
AVI | English | 1h 22min | 720x304
XviD - 1062kbps | MP3 - 128kbps | 707 MB
Genre: Action | Adventure
IMDB Info
Secret Ops agent Marcus is sent to Detroit to take out an arms dealer and the head of the hedge fund that is
financing him. His CIA backup has other plans and turns on him and it's a fight to survive in a hospital

ScreenCaps:
https://redcdn.net/ihimizer/img219/3935/gameofdeath2010dvdscrxv.jpg


Trailer:
https://www.youtube.com/watch?v=vsQAlUqr6EI


Trích dẫn :
letitbit.net Game.of.Death.2010.DVDSCr.XviD.avi.html

Sub Viet:
http://subscene.com/Game-of-Death/subtitles-85875.aspx

Abandoned [2010] DvDRiP XviD


Trích dẫn :
Theatre Date : 24/August/2010 (USA)
IMDB User Ratings: 5.0/10
Genre : Drama | Mystery | Thriller
IMDB Link : http://www.imdb.com/title/tt1470171/
Release iNFO
VIDEO:-
Format : Audio Video Interleave
Bitrate : 977 kbps
Codec ID : XviD
Resolution : 640 x 324
Aspect Ratio : 1.975
Frame Rate : 23.976 fps
Quality Frame : 0.197
-----------------------------
Audio:-
Codec ID : MP3
Bitrate : 128 kbps CBR
Channel(s) : 2
Sample Rate : 48.0 KHz

Encoder : SureNdrA
File Size : 698 MB
Duration : 1h 28m
Source : NTSC DVD
Release Date : 12-01-2011
Language : English
Subtitles : English
Sample : Yes
PLOT
Mary Walsh delivers boyfriend Kevin to a hospital for
routine outpatient surgery. But when Mary returns to
take him home,he's mysteriously vanished.

ScreenS
https://redcdn.net/ihimizer/img607/5594/abandoned2010dvdripxvid.jpg
https://redcdn.net/ihimizer/img703/7271/abandoned2010dvdripxvids.jpg
https://redcdn.net/ihimizer/img641/5594/abandoned2010dvdripxvid.jpg
https://redcdn.net/ihimizer/img703/5594/abandoned2010dvdripxvid.jpg


Trích dẫn :
letitbit.net Abandoned.2010DvDRiP.XviD.avi.html


And Soon The Darkness 2010 [DVDRip.XviD-miguel] [ENG]


Trích dẫn :
Country.......: USA, Arqentina, France
Genre.........: Thriller, Horror
Date release..: 28.02.2010 [World]
Director......: Marcos Efron
Writers.......: Jennifer Derwingson, Marcos Efron
Duration......: 91 min.
More..........: http://www.imdb.com/title/tt1391034
Trailer.......: http://www.imdb.com/video/imdb/vi2266011929
Trailer.......:

Pilot :
When two American girls on a bike trip in a remote part of Argentina split up and one of them goes missing, the other must find her before her worst fears are realized.

Cats :
Amber Heard ... Stephanie
Odette Yustman ... Ellie
Karl Urban ... Michael
Gia Mantegna ... Camila
Adriana Barraza ... Rosamaria
Cesar Vianco ... Calvo
Michel Noher ... Chucho
Luis Sabatini ... Luca
Javier Luna ... Bar Owner
Andrea Verdun ... Waitress
Maria Salome Cari ... Cleaning Woman
Matias Paz Conde ... Skinny Guy
Hugo Miranda ... Man
Esteban Pastrana ... Barman
Jorge Booth ... Hernan

Data Technical :
!!! SAMPLE !!!
Audio.....: English
Subtitles.: English .str, Spanish .str, Romanian .str, Greece .str, Czech .str, Bulgarian .str, Polish .txt
Video.....: XviD 640x272 23.98fps [Video]
Audio.....: MPEG Audio Layer 3 48000Hz stereo 127kbps [Audio]

Screen :
https://redcdn.net/ihimizer/img51/9802/andsoonthedarkness2010s.jpg
https://redcdn.net/ihimizer/img441/9802/andsoonthedarkness2010s.jpg
https://redcdn.net/ihimizer/img140/9802/andsoonthedarkness2010s.jpg
https://redcdn.net/ihimizer/img233/9802/andsoonthedarkness2010s.jpg


Trích dẫn :
letitbit.net And.Soon.The.Darkness.2010.DVDRip.XviD.avi.html


Death Race 2 2010 DVDRip


Thông tin phim:
http://cB6.upanh.com/19.434.26280345.zN50/as.png
Trích dẫn :
Death Race 2 DVDRip
-------------------------------------------
Release Name.........: Death Race 2 DVDRip [CyberPiraten]
Release Description..: An origin story for convicted cop killer Frankenstein
Release Date.........: 23th December, 2010
Release By...........: P2P
Genre..........: Action | Sci-Fi | Thriller
Video..........: XviD | 720�—400 | 4456 Kbps
Audio..........: English | AC3 | 6 Channels | 384 Kbps
Directed By....: Joseph Kosinski
Starring.......: Jeff Bridges | Garrett Hedlund | Olivia Wilde
Trailer........: www.imdb.com/video/imdb/vi2099747097/

Trích dẫn :
letitbit.net DeathRace_2_2010DVDRip.avi.html

Sub Việt:
http://subscene.com/vietnamese/Death-Race-2/subtitle-398579.aspx


Nude Nuns with Big Guns.2010.DVDRip.XviD


Trích dẫn :
Genre - Thriller
Year- 2010
IMDb Link - http://www.imdb.com/title/tt1352388/
Size - 719 mb
Length - 1h 22mn
Video - XviD
Resolution - 640 x 352/ 25.00 fps
Audio Language - English
Audio - AC3 / 192 Kbps
PLOT:
Upon taking her vows to become a nun, Sister Sarah is abused, brainwashed and drugged into submission by the corrupt clergy. On the verge of death from a lethal dose of drugs, Sister Sarah receives a message from GOD telling her to take vengeance on all those who did her wrong. Armed with God's will and an arsenal of big guns, she dispenses Judgment Day on her former tormentors. When the church hires the merciless motorcycle gang the "Los Muertos" to track down and kill her they soon realize that this SISTER IS ONE BAD MOTHER.
Screenshots:
http://shareimage.ro/images/0yuwfjsxwvl5rvnqv5kq.png
http://shareimage.ro/images/e2ottfuvyskyb9osun.png
http://shareimage.ro/images/5v3zxujqjwz79cu2o9m.png

Trích dẫn :
letitbit.net Nude_Nuns_with_Big_Guns.2010.DVDRip.XviD-WBZ.avi.html

Alpha And Omega 2010 DVDRip XviD


THEATRE DATE : 09/17/10 (USA) 2,625, (UK) 391
STORE DATE : 01/14/10
GENRE : Animation | Adventure
RUNTiME : 1 hour 27 minutes
RATiNG : 4.1/10
ViDEO : 960 kbps
AUDiO : 141 kbps 2ch. MP3
RESOLUTiON : 624x352 1.77:1
DiSCS : 1
SUBS : Eng | Spa
ScreenCaps:
http://leetleech.org/images/03613997326587893174.jpg

Trích dẫn :
letitbit.net Alpha.And.Omega-DvDrip.avi.html


Phù thủy tập sự - The Sorcerers Apprentice (2010) DVDRip XviD


Trích dẫn :
Format : AVI
Format/Info : Audio Video Interleave
Format profile : OpenDML
File size : 1.31 GiB
Duration : 1h 49mn
Overall bit rate : 1 722 Kbps
Writing application : VirtualDubMod 1.5.10.2 (build 2542/release)
Writing library : VirtualDubMod build 2542/release
Original source form : MAX TORRENTZ
Copyright : SIGISMUNT

Video
ID : 0
Format : MPEG-4 Visual
Format profile : AdvancedSimple@L5
Format settings, BVOP : Yes
Format settings, QPel : No
Format settings, GMC : No warppoints
Format settings, Matrix : Custom
Codec ID : XVID
Codec ID/Hint : XviD
Duration : 1h 49mn
Bit rate : 1 527 Kbps
Width : 720 pixels
Height : 304 pixels
Display aspect ratio : 2.35:1
Frame rate : 23.976 fps
Resolution : 24 bits
Colorimetry : 4:2:0
Scan type : Progressive
Bits/(Pixel*Frame) : 0.291
Stream size : 1.16 GiB (89%)
Writing library : XviD 1.2.1 (UTC 2008-12-04)

Audio
ID : 1
Format : MPEG Audio
Format version : Version 1
Format profile : Layer 3
Codec ID : 55
Codec ID/Hint : MP3
Duration : 1h 49mn
Bit rate mode : Constant
Bit rate : 192 Kbps
Channel(s) : 2 channels
Sampling rate : 48.0 KHz
Resolution : 16 bits
Stream size : 150 MiB (11%)
Alignment : Aligned on interleaves
Interleave, duration : 522 ms (12.51 video frames)
Interleave, preload duration : 216 ms
Writing library : LAME3.98.2

Screens:
http://www.postimg.com/image/24000/23913.jpg
http://www.postimg.com/image/24000/23914.jpg
http://www.postimg.com/image/24000/23915.jpg
http://www.postimg.com/image/24000/23916.jpg

ScreenCaps:
http://www.postimg.com/image/24000/23918.jpg

Trích dẫn :
letitbit.net The_Sorcerers_Apprentice_2010_DVDRip_XviD.avi.html

Trọn bộ Iron Man (2008 + 2010) BRRiP.720p


Trích dẫn :

+ Iron Man (2008)
General
Format: MPEG-4
File size: 720 MB
Release Duration: 2h 06mn 01sec
Overall bit rate: 800 Kbps
Video
Bit rate: 748 Kbps
Width: 1280 pixels
Audio
Bit rate: 48 Kbps
Sample Rate: 44100 Hz
SCREENS
https://redcdn.net/ihimizer/img577/7453/vlcsnap2010111310h41m47.png
https://redcdn.net/ihimizer/img688/2549/vlcsnap2010111310h42m54.png
https://redcdn.net/ihimizer/img263/8779/vlcsnap2010111310h47m19.png
https://redcdn.net/ihimizer/img707/4782/vlcsnap2010111310h48m15.png

+ Iron Man 2 (2010)
File size : 728 MiB
Duration : 2h 4mn
Overall bit rate : 816 Kbps
Video
Bit rate : 765 Kbps
Width : 1 280 pixels
Height : 544 pixels
Audio
Bit rate : 48.0 Kbps
SCREENSHOTS:
https://redcdn.net/ihimizer/img819/3155/ironman22010brrip720px2.jpg


+ Iron Man (2008)
Trích dẫn :
letitbit.net Iron_Man_2008_720p.x264.BRRip.GokU61.mp4.html

+ Iron Man (2010)
Trích dẫn :
letitbit.net Iron.Man.2.2010.BRRiP.720p.x264_PlutO_.mp4.html
Sub Viet:
letitbit.net Iron_Man_2008_2010.rar.html


Machete 2010 dvdrip


Trích dẫn :
TiTLE.........[ Machete
YEAR..........[ 2010
GENRE.........[ Action | Comedy | Crime
RUNTiME.......[ 1:44:58
iMDB RATE.....[ 7.3/10 (35,348 votes)
FXG RATE......[ 7.2/10 (2 votes)
iMDB URL......[ http://www.imdb.com/title/tt0985694/

AUDiO.........[ MP3 48000Hz 128 kb/s CBR (2 chnls)
LANGUAGE......[ English
ViDEO.........[ 795 kbps XviD 23.976 FPS
RESOLUTiON....[ 600 x 320
DAR...........[ 1.875 (15:8)
QUALiTY FRAME.[ 0.173
SUBS..........[ English
SiZE..........[ 700 MB
SOURCE........[ NTSC DVD

RiP...........[ #477
RELEASE DATE..[ 30/12/2010
PLOT SUMMARY
After being betrayed by the organization who hired him, an ex-Federale launches a brutal rampage of revenge against his former boss.

ScreenCaps:
https://redcdn.net/ihimizer/img525/4272/machete2010dvdripengfxg.jpg

Trích dẫn :
letitbit.net Machete_2010_DvDrip_Eng_-FXG.avi.html


Trọn bộ Spider-Man: Trilogy (2002-2007)



Thông tin phim:
http://cB3.upanh.com/19.0.24596422.Ph90/nhen.png


Trích dẫn :
letitbit.net Spider-Man.2002.m-HD.720p.x264_RKO.mkv.html
letitbit.net Spider-Man.2.1.2004.m-HD.720p.x264_RKO.mkv.html
letitbit.net Spider-Man.3.2007.m-HD.720p.x264_RKO.mkv.html


I Am Legend 2007 DBrip 1 link



Thông tin phim:
http://upload-free.com/images/93578098979688657277.png


Trích dẫn :
letitbit.net ToiLaHuyenThoai.IAmLegend.2007.BDrip.mkv.html


Sanctum 2011 - Phim hot có James Cameron nhúng tay



Thông tin phim:
http://cB8.upanh.com/19.489.26336787.ucM0/2.png

Trailer Phim:
https://www.youtube.com/watch?v=jaZHjv3ASfw


Trích dẫn :
letitbit.net Sanctum.2011.R5.LiNE.AC3.XViD.avi.part1.rar.html
letitbit.net Sanctum.2011.R5.LiNE.AC3.XViD.avi.part2.rar.html
letitbit.net Sanctum.2011.R5.LiNE.AC3.XViD.avi.part3.rar.html

Sub E:
http://subscene.com/english/Sanctum/subtitle-416255.aspx


My Belle Boss - Cô Chủ Xinh Đẹp Của Tôi[2010][DVDrip][Sub Việt]



Thông tin Phim:
http://cB2.upanh.com/19.561.26410521.4Hf0/fd.jpg
http://ca5.upanh.com/15.311.19586963.qRD0/20101028070535.jpg


Trích dẫn :
letitbit.net CoChuXinhDepCuaToi.My.Belle.Boss.2010.avi.html

Sub Viet:
Trích dẫn :
CoChuXinhDepCuaToi.My.Belle.Boss.2010.ass - 72 KB

Primal 2010 - Quái Vật Nguyên Thủy dvdrip






Supplier:IGUANA Genre.......:Horror
Ripper..:IGUANA Runtime.....:84 min
Format..:XviD IMDB Rating.:5.8/10
Source..:DVD R1 Store Date..:03/01/11
Size....:50x15mb Release Date:03/02/11

ASPECT & STANDARD AUDiO

[ ] Fullscreen 4:3 [*] English
[*] Widescreen 16:9 [ ] Dutch [ ] DTS 6.1
[23.976] Framerate [ ] French [ ] DS 5.1
[640x272 ] Resolution [ ] German [*] DS 2.0
[ ] Spanish [ ] DS 2.0 MONO
[ ] Other

[mp3@128kbps 48khz ]

Trailer Phim:
https://www.youtube.com/watch?v=J6eWNfNJVLw


Trích dẫn :
letitbit.net Primal.2010.DVDRip.XviD.avi.part1.rar.html
letitbit.net Primal.2010.DVDRip.XviD.avi.part2.rar.html


[FK] Bom tấn Tron Legacy 2010 - Trò chơi ảo giác dvdrip



Thông tin Phim:
http://cB4.upanh.com/19.580.26429613.5Bl0/tron.png

Trailer:
https://www.youtube.com/watch?v=a1IpPpB3iWI

SOURCE: DVDR NTSC R4
ViDEO: 752 kbps XviD
RESOLUTiON: 624x272
RUNTiME: 2h05msec
AUDiO: 128 CBR mp3
LANGUAGE: ENGLiSH

SCREENSHOTS
http://leetleech.org/images/27264961415612096620.png
http://leetleech.org/images/50039091665025360647.png
http://leetleech.org/images/78209844196723657270.png



Download 1 link nhanh, link này mình đã test tốc độ rất nhanh ko kém MF mà lại là link full cả movie, anh em dow nhanh nhé, ai thấy hay cho mình cái thks, chúc vui!:
[code]Tron.Legacy.2010.DVDRip.XviD-EVO.avi - 795.9 MB[/code]

+ Dowload: Vao link dow -> click "Free Download" ->doi dem nguoc ve 0/nhâp code -> click Download File!




Hàng khủng The Warriors Way 2010 PPVRIP



Thông tin phim:


Trailer:
https://www.youtube.com/watch?v=V6Qi9QaL0Lg
[code]Media Info:
Format : AVI
File size : 1.17 GiB
Duration : 1h 38mn
Overall bit rate : 1 696 Kbps

Video
Format : MPEG-4 Visual
Format settings, GMC : No warppoints
Format settings, Matrix : Default (H.263)
Codec ID : XVID
Codec ID/Hint : XviD
Duration : 1h 38mn
Bit rate : 1 550 Kbps
Width : 720 pixels
Height : 480 pixels

Audio
Codec ID/Hint : MP3
Duration : 1h 38mn
Bit rate : 128 Kbps
Channel(s) : 2 channels
Sampling rate : 44.1 KHz[/code]


1 link full movie:
Trích dẫn :
letitbit.net The_Warriors_Way_2010_PPVRIP.avi.html
Or:
Trích dẫn :
letitbit.net The_Warriors_Way_2010_PPVRIP.avi.part1.rar.html
letitbit.net The_Warriors_Way_2010_PPVRIP.avi.part2.rar.html



Phòng Cách Ly - The Clinic 2010 dvdrip 1 link




[code]The Clinic 2010 DVDRip XviD-NoGRP
DVDRip XviD-NoGRP | English | 1h 29m | DVDRip | avi | 720x304 | XviD @ 893 Kbps
MP3 @ 192 Kbps | 699 MB
Genres: Horror | Thriller
IMDb Info
While traveling across country with her fiance, Beth wakes alone in an isolated clinic to a mother's worst nightmare. Just how far
will she go to save her child?

ScreenCaps:
http://leetleech.org/images/97864920263948400479.jpg[/code]

Trailer:
https://www.youtube.com/watch?v=4eZ4a1coI2s


Trích dẫn :
letitbit.net The.Clinic.2010.DVDRip.XviD-NoGRP.avi.html

+ Dowload: Vao link dow -> click "Regular download" -> click "Download on slow speed" -> doi dem nguoc ve 0 "Wait for Your turn" -> click "Link to the file download" ---> ok!

Về Đầu Trang Go down
 

Tuyển tập phim Rạp mới [2010-2011] 1 link dow duy nhất

Xem chủ đề cũ hơn Xem chủ đề mới hơn Về Đầu Trang 
Trang 1 trong tổng số 1 trang

Permissions in this forum:Bạn không có quyền trả lời bài viết
Trường THPT Số 1 Mộ Đức :: CUỘC SỐNG QUANH TA  :: 
Giải Trí
 :: Phim
-
Chuyển đến 
Múi giờ GMT +7.
Powered by Forumotion® Version phpBB2
Copyright ©2009 - 2010, Skin by SLOL, SKIN4U & DDTH
Diễn đàn trường THPT số 1 Mộ Đức - Huyện Mộ Đức - Tỉnh Quảng Ngãi. Điện thoại: 055.3857256 .
MoDuc1.com là diễn đàn mở, nội dung do các thành viên đưa lên.Truy cập, sử dụng website này nghĩa là bạn đã chấp nhận Quy định của diễn đàn.

Free forum | © phpBB | Free forum support | Liên hệ | Report an abuse | www.sosblog.com